<?xml version="1.0" standalone="no"?>
<!DOCTYPE svg PUBLIC "-//W3C//DTD SVG 1.1//EN" "http://www.w3.org/Graphics/SVG/1.1/DTD/svg11.dtd" >
<svg xmlns="http://www.w3.org/2000/svg">
<metadata>Generated by IcoMoon</metadata>
<defs>
<font id="icomoon" horiz-adv-x="1024">
<font-face units-per-em="1024" ascent="960" descent="-64" />
<missing-glyph horiz-adv-x="1024" />
<glyph unicode="&#x20;" horiz-adv-x="512" d="" />
<glyph unicode="&#xe000;" glyph-name="grace" d="M554 384.667v256h-84v-256h84zM554 212.667v86h-84v-86h84zM512 852.667c236 0 426-190 426-426s-190-426-426-426-426 190-426 426 190 426 426 426z" />
<glyph unicode="&#xe001;" glyph-name="missing" d="M512 84.667c188 0 342 154 342 342s-154 342-342 342-342-154-342-342 154-342 342-342zM512 852.667c236 0 426-190 426-426s-190-426-426-426-426 190-426 426 190 426 426 426zM470 640.667h84v-256h-84v256zM470 298.667h84v-86h-84v86z" />
<glyph unicode="&#xe313;" glyph-name="desc" d="M316 604.667l196-196 196 196 60-60-256-256-256 256z" />
<glyph unicode="&#xe316;" glyph-name="asc" d="M316 280.667l-60 60 256 256 256-256-60-60-196 196z" />
<glyph unicode="&#xe425;" glyph-name="timer" d="M512 84.667c166 0 298 134 298 300s-132 298-298 298-298-132-298-298 132-300 298-300zM812 622.667c52-66 84-148 84-238 0-212-172-384-384-384s-384 172-384 384 172 384 384 384c90 0 174-34 240-86l60 62c22-18 42-38 60-60zM470 340.667v256h84v-256h-84zM640 896.667v-86h-256v86h256z" />
<glyph unicode="&#xe5d3;" glyph-name="dots" d="M512 512.667c46 0 86-40 86-86s-40-86-86-86-86 40-86 86 40 86 86 86zM768 512.667c46 0 86-40 86-86s-40-86-86-86-86 40-86 86 40 86 86 86zM256 512.667c46 0 86-40 86-86s-40-86-86-86-86 40-86 86 40 86 86 86z" />
<glyph unicode="&#xe7f6;" glyph-name="paused" d="M768 312.667l-382 402c10 4 20 10 30 14h2l12 6c6 2 12 2 18 4v30c0 36 28 64 64 64s64-28 64-64v-30c122-30 192-138 192-270v-156zM512 0.667c-48 0-86 36-86 84h172c0-48-38-84-86-84zM334 676.667c187.235-193.432 375.34-385.994 562-580l-54-54-86 86h-586v42l86 86v214c0 54 12 104 34 146l-120 118 54 56z" />
<glyph unicode="&#xe7f7;" glyph-name="down" d="M512 0.667c-48 0-86 38-86 84h170c0-49.675-37.225-84-84-84zM768 468.667v-212l86-86v-42h-684v42l86 86v212c0 132 70 240 192 270v30c0 36 28 64 64 64s64-28 64-64v-30c122-30 192-140 192-270zM852 490.667c-6 114-64 212-150 274l60 60c102-78 170-198 176-334h-86zM324 764.667c-88-62-146-160-152-274h-86c6 136 74 256 176 334z" />
<glyph unicode="&#xe86c;" glyph-name="up, new, ok" d="M426 212.667l384 384-60 62-324-324-152 152-60-60zM512 852.667c236 0 426-190 426-426s-190-426-426-426-426 190-426 426 190 426 426 426z" />
<glyph unicode="&#xe900;" d="M986.004 426.667c0-261.785-212.218-474.004-474.004-474.004s-474.004 212.218-474.004 474.004c0 261.785 212.218 474.004 474.004 474.004s474.004-212.218 474.004-474.004z" />
<glyph unicode="&#xe901;" glyph-name="matrix" d="M563.921 550.946q22.168 33.904 52.487 51.508 30.644 17.93 67.156 17.93 62.918 0 95.845-38.796t32.926-112.796v-222.333h-117.362v190.384q0.327 4.237 0.327 8.801 0.327 4.564 0.327 13.041 0 38.795-11.41 56.073-11.41 17.604-36.838 17.604-33.253 0-51.509-27.385-17.93-27.385-18.582-79.218v-179.301h-117.362v190.384q0 60.636-10.431 77.916-10.431 17.604-37.165 17.604-33.579 0-51.834-27.71-18.256-27.385-18.256-78.566v-179.628h-117.363v365.123h117.362v-53.464q21.516 30.971 49.226 46.619 28.037 15.648 61.615 15.648 37.816 0 66.83-18.256t44.010-51.181zM0.012 938.655v-1023.977h106.166v39.711h-66.455v944.555h66.455v39.711zM917.417 938.655v-39.711h66.455v-944.555h-66.455v-39.711h106.166v1023.977z" />
<glyph unicode="&#xe903;" glyph-name="whatsapp" d="M746.573 325.039c-12.843 6.399-75.39 36.991-87.037 41.215-11.648 4.308-20.18 6.399-28.715-6.399-8.405-12.587-32.895-41.129-40.276-49.577-7.467-8.319-14.891-8.96-27.563-3.2-12.8 6.399-53.887 19.839-102.525 63.358-37.886 33.919-63.315 75.517-70.825 88.317-7.424 12.8-0.811 19.839 5.547 26.239 5.803 5.76 12.843 14.72 19.242 22.314 6.228 7.723 8.277 12.843 12.672 21.162 4.267 8.96 2.091 15.999-1.067 22.356-3.2 6.399-28.671 69.118-39.338 94.12-10.239 24.916-20.778 21.759-28.671 21.759-7.339 0.64-15.828 0.64-24.362 0.64s-22.314-3.156-34.004-15.317c-11.648-12.8-44.585-43.519-44.585-105.596s45.652-122.236 52.009-131.195c6.357-8.319 89.81-136.315 217.592-191.354 30.463-12.8 54.185-20.48 72.702-26.836 30.463-9.684 58.238-8.319 80.21-5.163 24.491 3.883 75.39 30.762 86.013 60.841 10.88 30.079 10.88 55.038 7.68 60.798-3.156 5.76-11.52 8.96-24.32 14.72zM514.603 10.681h-0.683c-75.517 0-150.352 20.48-215.672 58.878l-15.359 9.131-159.994-41.599 42.878 155.515-10.197 15.999c-42.239 67.24-64.681 144.679-64.681 224.42 0 232.312 190.074 421.746 424.177 421.746 113.233 0 219.512-44.158 299.553-124.156 79.998-79.314 124.112-185.594 124.112-298.23-0.171-232.269-190.286-421.746-423.879-421.746zM875.507 791.497c-97.277 94.034-225.272 147.152-361.587 147.152-280.823 0-509.466-227.576-509.593-507.418 0-89.426 23.423-176.634 68.050-253.644l-72.361-262.903 270.284 70.482c74.493-40.234 158.287-61.609 243.619-61.737h0.256c280.95 0 509.679 227.661 509.806 507.546 0 135.505-52.906 263.031-149.115 358.857z" />
<glyph unicode="&#xe904;" d="M98.415 712.369h848.136v-362.823h-848.136v362.823z" />
<glyph unicode="&#xe905;" d="M163.458 762.853h693.35v-691.816h-693.35z" />
<glyph unicode="&#xe906;" d="M144.904 646.12h640.179v-498.746h-640.179z" />
<glyph unicode="&#xe907;" glyph-name="mattermost" d="M812.865 840.915l5.388-108.668c88.101-97.325 122.872-235.158 79.018-364.703-65.461-193.377-281.322-295.032-482.138-227.049-200.815 67.98-310.54 279.852-245.078 473.231 44 129.974 155.945 218.509 285.595 241.954l70.048 82.764c-218.545 5.916-424.729-129.736-498.501-347.657-90.641-267.753 52.936-558.289 320.689-648.932 267.753-90.64 558.292 52.936 648.932 320.689 73.653 217.573-7.346 450.188-183.955 578.369zM687.358 520.267l-3.71 151.916-2.976 87.416-2.013 75.732c0 0 0.422 36.518-0.854 45.099-0.268 1.806-0.838 3.275-1.511 4.559l-0.258 0.537-0.291 0.468c-1.401 2.411-3.603 4.368-6.45 5.333-2.914 0.987-5.927 0.743-8.546-0.387l-0.162-0.061c-0.311-0.141-0.608-0.299-0.907-0.463-1.241-0.604-2.503-1.387-3.737-2.585-6.226-6.041-28.075-35.306-28.075-35.306l-47.6-58.937-55.463-67.633-95.226-118.423c0 0-43.698-54.538-34.043-121.668s59.563-99.833 98.282-112.942c38.718-13.106 98.23-17.444 146.677 30.018 48.447 47.459 46.864 117.326 46.864 117.326z" />
<glyph unicode="&#xe908;" glyph-name="webhook" d="M479.898 503.748c-42.594-71.602-83.4-140.941-125.060-209.758-10.698-17.666-15.993-32.059-7.448-54.517 23.596-62.040-9.69-122.412-72.252-138.801-59-15.46-116.485 23.315-128.192 86.484-10.374 55.91 33.015 110.721 94.66 119.458 5.163 0.738 10.438 0.822 19.116 1.473l93.769 157.239c-58.975 58.642-94.079 127.19-86.312 212.135 5.491 60.046 29.105 111.935 72.261 154.466 82.658 81.446 208.762 94.634 306.088 32.118 93.472-60.047 136.282-177.013 99.794-277.125-27.516 7.459-55.221 14.982-85.681 23.245 11.456 55.661 2.983 105.641-34.556 148.458-24.801 28.27-56.628 43.088-92.814 48.545-72.549 10.96-143.779-35.648-164.915-106.856-23.99-80.811 12.322-146.829 111.539-196.578zM601.539 588.425c30.008-52.94 60.478-106.677 90.677-159.92 152.63 47.222 267.709-37.271 308.994-127.728 49.868-109.269 15.777-238.689-82.156-306.104-100.523-69.202-227.649-57.379-316.71 31.518 22.698 19.002 45.507 38.084 69.88 58.476 87.966-56.973 164.903-54.292 222.021 13.175 48.708 57.556 47.651 143.373-2.469 199.719-57.839 65.023-135.316 67.005-228.965 4.591-38.847 68.92-78.37 137.289-115.992 206.708-12.685 23.398-26.689 36.973-55.28 41.925-47.743 8.278-78.57 49.277-80.418 95.213-1.819 45.429 24.946 86.492 66.776 102.49 41.437 15.853 90.065 3.059 117.937-32.171 22.779-28.785 30.017-61.181 18.029-96.68-3.332-9.9-7.648-19.477-12.323-31.208zM673.262 155.663h-183.741c-17.611-72.437-55.653-130.919-121.198-168.11-50.954-28.903-105.872-38.705-164.324-29.265-107.619 17.354-195.619 114.235-203.367 223.326-8.769 123.583 76.175 233.429 189.394 258.103 7.816-28.387 15.719-57.047 23.534-85.362-103.879-52.999-139.832-119.775-110.76-203.277 25.594-73.48 98.292-113.759 177.227-98.184 80.611 15.904 121.254 82.899 116.29 190.416 76.421 0 152.903 0.791 229.332-0.39 29.843-0.47 52.883 2.626 75.364 28.938 37.013 43.291 105.142 39.385 145.008-1.501 40.74-41.787 38.789-109.023-4.324-149.045-41.593-38.62-107.306-36.557-146.223 5.058-7.997 8.575-14.299 18.758-22.212 29.299z" />
<glyph unicode="&#xe909;" d="M136.695 706.518h741.933v-570.55h-741.933v570.55z" />
<glyph unicode="&#xe90a;" d="M152.641 781.226h715.853v-710.682h-715.853v710.682z" />
<glyph unicode="&#xe90b;" d="M120.394 827.416h775.593v-807.591h-775.593v807.591z" />
<glyph unicode="&#xe90c;" d="M141.15 746.115h745.521v-536.898h-745.521v536.898z" />
<glyph unicode="&#xe90d;" d="M1002.462 426.667c0-270.809-219.534-490.343-490.343-490.343s-490.343 219.534-490.343 490.343c0 270.809 219.534 490.343 490.343 490.343s490.343-219.534 490.343-490.343z" />
<glyph unicode="&#xe90e;" d="M204.699 769.13h602.72v-712.705h-602.72v712.705z" />
<glyph unicode="&#xe90f;" d="M225.903 727.87h570.207v-614.164h-570.207v614.164z" />
<glyph unicode="&#xe910;" glyph-name="opsgenie" d="M771.752 683.122c0-141.161-114.433-255.594-255.594-255.594s-255.594 114.433-255.594 255.594c0 141.161 114.433 255.594 255.594 255.594s255.594-114.433 255.594-255.594zM309.573 481.319c-0.371 0.017-0.806 0.027-1.243 0.027-4.604 0-8.955-1.085-12.81-3.014l0.166 0.075-194.951-95.614c-8.824-5.002-14.681-14.329-14.681-25.026 0-5.121 1.343-9.929 3.696-14.091l-0.074 0.143c56.335-95.991 120.728-178.851 194.405-252.417l0.015-0.015c4.964 2.406 4.771 2.304 4.579 2.202l-5.167-2.51c1.115-1.037 3.092-2.846 5.077-4.649l0.999-0.895c17.23-16.746 35.258-33.257 53.767-49.228l1.586-1.337c11.161-10.189 23.511-21.003 36.075-31.569l1.862-1.525c14.020-11.174 30.949-23.887 48.21-36.166l3.783-2.556c15.96-12.246 35.343-26.134 55.136-39.457l4.36-2.764c0.393-0.245 0.979-0.58 1.573-0.9l0.218-0.108c0.532-0.317 1.274-0.718 2.030-1.096l0.237-0.108c0.038-0.030 0.334-0.161 0.631-0.29l0.265-0.102c0.656-0.323 1.579-0.718 2.52-1.081l0.28-0.095c0.284-0.109 0.862-0.291 1.446-0.46l0.29-0.072c0.385-0.143 1.066-0.354 1.755-0.547l0.289-0.069c0.558-0.151 1.408-0.336 2.268-0.494l0.252-0.038c0.208-0.056 0.691-0.153 1.177-0.242l0.251-0.038c0.573-0.086 1.372-0.176 2.177-0.242l0.147-0.010c0.473-0.058 1.139-0.118 1.81-0.161l0.122-0.007c0.469-0.019 1.019-0.030 1.571-0.030 0.147 0 0.292 0.001 0.439 0.002h-0.022c0.124-0.001 0.27-0.002 0.417-0.002 0.552 0 1.103 0.011 1.65 0.032l-0.078-0.002c0.793 0.050 1.459 0.11 2.121 0.186l-0.189-0.018c0.952 0.076 1.75 0.166 2.541 0.278l-0.217-0.026c0.799 0.131 1.348 0.239 1.894 0.357l-0.27-0.049c1.018 0.184 1.774 0.349 2.522 0.535l-0.282-0.059c0.996 0.259 1.697 0.47 2.39 0.699l-0.29-0.083c0.912 0.261 1.526 0.461 2.135 0.676l-0.287-0.088c1.093 0.42 1.896 0.769 2.686 1.142l-0.25-0.106c0.661 0.264 1.048 0.433 1.432 0.609l-0.256-0.105c0.993 0.486 1.736 0.887 2.464 1.309l-0.196-0.105c0.813 0.428 1.399 0.763 1.976 1.111l-0.184-0.103c24.622 16.414 44.442 30.641 63.808 45.433l-2.968-2.176c20.155 14.214 36.236 26.266 52.006 38.695l-2.617-1.989c16.625 13.861 31.025 26.487 45.122 39.441l-0.885-0.803c17.485 15.153 33.095 29.423 48.326 44.081l-0.393-0.376c3.848 3.472 6.646 6.031 9.432 8.602l-0.837-0.763c-5.326 2.65-5.601 2.8-5.876 2.949l5.036-2.501c73.555 73.543 137.839 156.357 190.949 246.536l3.135 5.755c2.282 4.022 3.629 8.834 3.629 13.96 0 10.687-5.847 20.009-14.518 24.94l-0.141 0.074-0.868 0.868-193.664 94.746c-3.658 1.817-7.965 2.878-12.521 2.878-10.497 0-19.676-5.641-24.672-14.057l-0.073-0.132c-51.447-85.237-112.166-158.35-182.225-221.273l-0.884-0.781c-70.923 63.696-131.617 136.812-180.628 217.788l-2.397 4.266c-4.85 8.227-13.49 13.767-23.456 14.221l-0.063 0.002z" />
<glyph unicode="&#xe911;" d="M78.122 851.868h863.419v-820.031h-863.419v820.031z" />
<glyph unicode="&#xe912;" glyph-name="clippy" horiz-adv-x="896" d="M703.988 64.018h-639.971v575.974h639.971v-191.992h63.998v319.986c0 34.998-28.999 63.998-63.998 63.998h-191.992c0 70.996-56.998 127.994-127.994 127.994s-127.994-56.998-127.994-127.994h-191.992c-34.998 0-63.998-28.999-63.998-63.998v-703.968c0-34.998 28.999-63.998 63.998-63.998h639.971c34.998 0 63.998 28.999 63.998 63.998v127.994h-63.998v-127.994zM192.012 767.986c28.999 0 28.999 0 63.998 0s63.998 28.999 63.998 63.998 28.999 63.998 63.998 63.998 63.998-28.999 63.998-63.998 31.999-63.998 63.998-63.998 32.998 0 63.998 0 63.998-28.999 63.998-63.998h-511.977c0 38.999 27.999 63.998 63.998 63.998zM128.014 256.008h127.994v63.998h-127.994v-63.998zM575.994 384.002v127.994l-255.988-191.992 255.988-191.992v127.994h319.986v127.994h-319.986zM128.014 128.014h191.992v63.998h-191.992v-63.998zM448 575.994h-319.986v-63.998h319.986v63.998zM256.008 448h-127.994v-63.998h127.994v63.998z" />
<glyph unicode="&#xe913;" glyph-name="settings" d="M512 276.667c82 0 150 68 150 150s-68 150-150 150-150-68-150-150 68-150 150-150zM830 384.667l90-70c8-6 10-18 4-28l-86-148c-6-10-16-12-26-8l-106 42c-22-16-46-32-72-42l-16-112c-2-10-10-18-20-18h-172c-10 0-18 8-20 18l-16 112c-26 10-50 24-72 42l-106-42c-10-4-20-2-26 8l-86 148c-6 10-4 22 4 28l90 70c-2 14-2 28-2 42s0 28 2 42l-90 70c-8 6-10 18-4 28l86 148c6 10 16 12 26 8l106-42c22 16 46 32 72 42l16 112c2 10 10 18 20 18h172c10 0 18-8 20-18l16-112c26-10 50-24 72-42l106 42c10 4 20 2 26-8l86-148c6-10 4-22-4-28l-90-70c2-14 2-28 2-42s0-28-2-42z" />
<glyph unicode="&#xe914;" d="M512 938.667c-282.77 0-512-229.23-512-512v0c0-282.77 229.23-512 512-512v0c282.77 0 512 229.23 512 512v0c0 282.77-229.23 512-512 512v0zM721.338 630.439c4.235 0.075 13.706-0.974 19.84-5.952 5.18-4.203 6.604-9.881 7.286-13.866s1.531-13.063 0.856-20.156c-7.705-80.959-41.044-277.426-58.006-368.102-7.177-38.368-21.309-51.233-34.99-52.492-29.733-2.736-52.312 19.651-81.11 38.528-45.063 29.539-70.519 47.927-114.26 76.752-50.55 33.312-17.781 51.62 11.028 81.542 7.539 7.831 138.542 126.989 141.078 137.798 0.317 1.352 0.612 6.391-2.382 9.052s-7.413 1.752-10.602 1.028c-4.52-1.026-76.507-48.609-215.964-142.746-20.434-14.031-38.941-20.868-55.524-20.51-18.281 0.395-53.446 10.336-79.588 18.834-32.064 10.423-57.549 15.935-55.33 33.636 1.156 9.22 13.853 18.648 38.090 28.286 149.258 65.029 248.789 107.901 298.588 128.614 142.188 59.141 171.733 69.415 190.99 69.754z" />
<glyph unicode="&#xe915;" glyph-name="apprise" d="M389.268-48.318c-34.189 9.519-58.156 63.494-72.596 89.918s-41.663 74.234-41.663 74.234l133.817 71.94c0 0 56.221-94.166 83.232-141.634 18.109-45.078-34.567-65.951-65.131-84.134-11.244-6.387-24.396-12.433-37.657-10.325zM129.203 138.35c-77.591 5.8-140.145 83.347-127.565 160.785 0.041 26.535 30.991 98.884 56.804 53.183 38.8-68.918 79.934-136.544 118.017-205.793-9.199-12.589-33.463-6.886-47.257-8.176zM238.438 176.207c-47.391 77.012-90.906 156.474-137.253 234.22 28.827 21.174 56.726 36.615 81.489 56.143 105.524 66.356 220.185 188.833 268.123 322.759 12.52 42.011 61.627 73.355 86.837 35.527 93.303-162.351 188.786-323.518 280.891-486.49 16.258-61.865-59.42-49.943-96.438-41.431-123.804 16.159-256.516 6.966-366.426-56.67-38.242-21.238-74.982-45.464-114.034-65.023l-3.192 0.964zM936.606 464.422c-55.548 19.189 2.335 67.969 13.22 99.498 40.979 87.587 4.996 200.134-77.46 249.905-43.777 27.722-97.096 35.277-147.765 27.757-45.504 8.155-24.88 57.311 18.512 58.981 125.524 14.573 253.521-78.386 275.334-203.358 16.871-80.12-4.816-171.286-64.801-228.789-5.405-2.076-11.085-4.655-17.037-3.996zM812.020 508.482c-52.015 24.155 12.067 67.638 7.573 103.873 8.435 61.35-54.122 115.703-113.69 102.144-34.707 8.27-32.484 54.097 12.428 58.599 92.893 7.639 176.934-85.703 158.672-177.401-6.078-32.112-25.625-87.853-64.983-87.212z" />
<glyph unicode="&#xe916;" d="M100.629 601.4h325.272v-358.81h-325.272v358.81z" />
<glyph unicode="&#xe917;" d="M73.393 851.631h872.037v-843.815h-872.037v843.815z" />
<glyph unicode="&#xe918;" glyph-name="delete" d="M810 768.667v-86h-596v86h148l44 42h212l44-42h148zM256 128.667v512h512v-512c0-46-40-86-86-86h-340c-46 0-86 40-86 86z" />
<glyph unicode="&#xe919;" d="M285.051 848.808h448.718v-784.551h-448.718v784.551z" />
<glyph unicode="&#xe91a;" d="M173.643 754.417h666.109v-658.465h-666.109v658.465z" />
<glyph unicode="&#xe91b;" d="M138.079 651.010h754.733v-340.55h-754.733v340.55z" />
<glyph unicode="&#xe91c;" glyph-name="signal" d="M512 938.667c26.563 0 52.653-2.023 78.126-5.923l-7.324-47.445c-23.084 3.534-46.729 5.368-70.802 5.368s-47.715-1.833-70.799-5.367l-7.324 47.445c25.471 3.9 51.561 5.922 78.123 5.922zM633.503 924.163l-11.391-46.64c46.783-11.385 90.783-29.863 130.809-54.228l24.928 41.030c-44.166 26.886-92.723 47.274-144.346 59.838zM814.586 839.729l-28.365-38.724c38.253-28.071 72.045-61.865 100.115-100.12l38.726 28.367c-30.976 42.212-68.262 79.502-110.477 110.477zM949.658 692.511l-41.030-24.923c24.365-40.026 42.842-84.031 54.227-130.813l46.643 11.391c-12.563 51.62-32.954 100.178-59.84 144.345zM1018.080 504.789l-47.45-7.324c3.539-23.083 5.37-46.726 5.37-70.798s-1.83-47.718-5.37-70.802l47.45-7.324c3.898 25.473 5.92 51.563 5.92 78.126s-2.022 52.651-5.92 78.122zM908.627 185.739c24.365 40.032 42.842 84.032 54.227 130.816l46.643-11.391c-12.563-51.624-32.954-100.18-59.84-144.347zM886.336 152.446l38.726-28.365c-30.976-42.214-68.262-79.501-110.477-110.477l-28.371 38.726c38.259 28.070 72.051 61.862 100.122 100.115zM752.922 30.040l24.922-41.030c-44.166-26.886-92.723-47.277-144.344-59.84l-11.391 46.643c46.781 11.386 90.787 29.862 130.813 54.227zM582.798-31.963l7.325-47.45c-25.471-3.898-51.561-5.92-78.123-5.92s-52.654 2.022-78.127 5.92l7.323 47.443c23.075-3.533 46.718-5.363 70.804-5.363 24.072 0 47.715 1.83 70.798 5.37zM401.885-24.2l-11.388-46.63c-38.777 9.44-75.825 23.29-110.582 40.998l-48.593-11.341-10.907 46.746 65.667 15.322 15.621-7.955c31.48-16.038 65.039-28.589 100.183-37.139zM179.902-3.88l10.907-46.746-83.293-19.43c-55.429-12.934-105.176 36.813-92.242 92.237l19.435 83.296 46.745-10.906-19.435-83.296c-4.85-20.787 13.805-39.437 34.591-34.592zM90.906 135.083l-46.745 10.906 11.338 48.595c-17.706 34.758-31.56 71.808-40.997 110.584l46.63 11.388c8.55-35.143 21.101-68.705 37.138-100.186l7.958-15.622zM53.361 355.868l-47.438-7.323c-3.9 25.471-5.922 51.56-5.922 78.122s2.023 52.653 5.923 78.126l47.445-7.324c-3.534-23.085-5.368-46.729-5.368-70.802 0-24.084 1.831-47.726 5.361-70.799zM61.144 536.779l-46.64 11.391c12.563 51.62 32.952 100.178 59.838 144.345l41.030-24.923c-24.365-40.026-42.842-84.031-54.228-130.813zM137.663 700.887l-38.724 28.367c30.975 42.212 68.264 79.501 110.477 110.476l28.367-38.724c-38.255-28.071-72.049-61.864-100.12-100.119zM271.078 823.297l-24.924 41.031c44.167 26.885 92.724 47.273 144.346 59.836l11.391-46.64c-46.781-11.386-90.787-29.862-130.813-54.227zM928 426.667c0-229.754-186.246-416-416-416-72.874 0-141.372 18.739-200.938 51.661-5.735 3.168-12.427 4.211-18.809 2.726l-185.046-43.181 43.178 185.050c1.489 6.381 0.443 13.075-2.726 18.81-32.921 59.565-51.659 128.061-51.659 200.934 0 229.75 186.25 416 416 416 229.754 0 416-186.25 416-416z" />
<glyph unicode="&#xe91d;" d="M511.999 938.65c-282.758-0.001-511.981-229.221-511.982-511.981v-0.001c0.001-282.758 229.221-511.981 511.981-511.982h0.001c282.758 0.001 511.981 229.221 511.982 511.981v0.001c-0.001 282.758-229.221 511.981-511.981 511.982h-0.001zM523.135 697.209c0.212 0.008 0.461 0.013 0.71 0.013 1.228 0 2.431-0.105 3.601-0.307l-0.125 0.018c63.596-9.761 111.376-29.197 148.059-60.879s61.267-74.418 82.318-127.899c0.921-2.278 1.455-4.919 1.455-7.686 0-11.608-9.411-21.018-21.018-21.018-8.842 0-16.408 5.459-19.513 13.191l-0.050 0.141c-19.763 50.207-41.117 85.952-70.688 111.491s-68.377 42.129-126.945 51.118c-10.294 1.472-18.12 10.229-18.12 20.815 0 11.361 9.014 20.615 20.28 21.001l0.035 0.001zM335.394 679.076c28.505 0 56.473-2.279 61.808-8.072 8.866-33.088 17.68-87.505 30.789-150.919-1.22-23.475-66.151-77.432-66.151-77.432 17.073-28.658 66.46-80.492 88.411-97.87s83.533-60.361 120.117-67.067c0 0 44.506 80.796 54.872 83.235 14.633 0 129.572 4.572 143.595-11.281s34.15-114.943 28.968-134.148c-5.183-19.207-24.827-41.030-43.119-51.396-19.511-9.147-126.816-15.235-202.423 9.459-37.804 12.347-128.678 52.308-196.282 119.116s-111.516 160.026-117.921 196.295c-12.81 72.536-31.147 153.464 32.322 184.446 7.47 3.354 36.512 5.634 65.017 5.634zM516.113 612.671c0.212 0.008 0.461 0.011 0.71 0.011 1.228 0 2.431-0.105 3.601-0.307l-0.125 0.018c42.286-6.491 74.929-19.609 100.054-41.31s41.699-50.749 55.631-86.144c1.134-2.501 1.795-5.423 1.795-8.499 0-11.605-9.409-21.014-21.014-21.014-9.145 0-16.925 5.841-19.813 13.996l-0.045 0.147c-12.643 32.121-25.999 54.164-44.012 69.723s-41.718 25.842-78.976 31.562c-10.294 1.472-18.12 10.229-18.12 20.815 0 11.361 9.014 20.615 20.28 21.001l0.035 0.001z" />
<glyph unicode="&#xe91e;" d="M512 938.644c-281.588 0-511.977-230.39-511.977-511.977s230.39-511.977 511.977-511.977c281.588 0 511.977 230.39 511.977 511.977s-230.39 511.977-511.977 511.977zM517.117 856.725l38.405-107.511 43.514 12.797-33.279-87.035 7.68-58.881 107.518 107.518-28.162-107.518 7.68-15.358-58.872-92.152 5.117-28.162 204.795 92.16-74.239-99.84 28.155-56.317-156.148-74.231-2.562-25.601 120.315 35.835-58.881-71.676-5.117-23.038-74.239-30.718-7.68-20.476 33.279 12.797-87.035-97.277-7.68-79.355v-74.239h-15.358v71.676l-5.117 81.919-87.043 97.277 33.279-12.797-7.68 20.476-74.231 30.718-5.124 23.038-58.872 71.676 120.315-35.835-2.563 25.601-156.157 74.231 35.843 56.317-74.239 99.84 204.795-92.16 5.117 28.162-58.881 92.152 7.68 15.358-28.155 107.518 107.511-107.518 7.68 58.881-33.272 87.035 43.514-12.797 38.396 107.511z" />
<glyph unicode="&#xe91f;" d="M512.001 938.65c0 0 0 0-0.001 0-282.76 0-511.983-229.222-511.983-511.983 0 0 0-0.001 0-0.001v0c0.001-282.759 229.224-511.981 511.983-511.981 0 0 0.001 0 0.001 0v0c282.758 0.001 511.98 229.222 511.981 511.981v0c0 0 0 0 0 0.001 0 282.759-229.221 511.982-511.981 511.983v0zM344.759 692.551h334.48c39.218 0 71.295-35.786 71.295-79.532 0-26.78-12.038-50.594-30.369-65.018l-177.97-158.935c-3.311-2.834-7.601 1.734-5.218 5.549l65.284 130.711c1.828 3.656-0.543 8.159-4.305 8.159h-253.2c-39.218 0-71.309 35.788-71.309 79.534s32.092 79.532 71.309 79.532zM483.703 465.148c2.77 0.28 5.241-3.316 3.302-6.416l-65.282-130.711c-1.828-3.656 0.543-8.159 4.305-8.159h253.21c39.218 0 71.295-35.801 71.295-79.534 0-43.746-32.092-79.534-71.309-79.534h-334.467c-39.218 0-71.309 35.788-71.309 79.534 0 26.78 12.041 50.594 30.371 65.018l177.966 158.935c0.621 0.531 1.275 0.802 1.914 0.867z" />
<glyph unicode="&#xe920;" d="M826.229 517.843c14.891 0 26.879-12.16 26.879-26.922 0-14.719-11.988-26.879-26.879-26.879h-74.877v-47.998h74.877c14.891 0 26.879-12.075 26.879-26.879 0-14.677-11.988-26.836-26.879-26.836h-101.799c-14.719 0-26.752 12.16-26.752 26.836v203.556c0 14.719 12.032 26.879 26.879 26.879h101.799c14.762 0 26.752-12.16 26.752-26.879 0-14.891-11.988-26.879-26.879-26.879h-74.877v-47.998h74.877zM661.755 389.164c0-11.52-7.424-21.759-18.432-25.428-2.731-0.896-5.675-1.323-8.491-1.323-9.003 0-16.682 3.84-21.759 10.666l-104.232 141.52v-125.436c0-14.677-11.903-26.836-26.922-26.836-14.762 0-26.708 12.16-26.708 26.836v203.556c0 11.52 7.381 21.759 18.346 25.386 2.56 0.981 5.803 1.408 8.277 1.408 8.32 0 15.999-4.437 21.119-10.837l105.041-142.075v126.119c0 14.719 12.032 26.879 26.879 26.879 14.719 0 26.879-12.16 26.879-26.879v-203.556zM416.815 389.164c0-14.677-12.032-26.836-26.922-26.836-14.719 0-26.752 12.16-26.752 26.836v203.556c0 14.719 12.032 26.879 26.879 26.879 14.762 0 26.794-12.16 26.794-26.879v-203.556zM311.602 362.328h-101.799c-14.719 0-26.879 12.16-26.879 26.836v203.556c0 14.719 12.16 26.879 26.879 26.879 14.847 0 26.879-12.16 26.879-26.879v-176.677h74.92c14.847 0 26.836-12.075 26.836-26.879 0-14.677-12.032-26.836-26.836-26.836zM1023.983 498.601c0 229.155-229.752 415.645-511.983 415.645s-511.983-186.49-511.983-415.645c0-205.262 182.18-377.246 428.145-409.927 16.682-3.499 39.38-11.007 45.139-25.172 5.12-12.842 3.371-32.682 1.621-46.078l-6.997-43.519c-1.92-12.842-10.24-50.601 44.756-27.519 55.081 22.996 295.073 173.989 402.589 297.59 73.555 80.594 108.712 163.152 108.712 254.627z" />
<glyph unicode="&#xe921;" d="M109.243 938.65c-60.51 0-109.226-48.715-109.226-109.226v-805.519c0-60.51 48.715-109.219 109.226-109.219h805.519c60.51 0 109.219 48.71 109.219 109.219v805.519c0 60.51-48.71 109.226-109.219 109.226h-805.519zM519.994 764.577c26.73 0 48.898-9.735 66.502-29.224 18.254-19.485 27.383-43.495 27.383-72.025s-9.131-52.536-27.383-72.019c-17.604-19.485-39.772-29.23-66.502-29.23-27.385 0-50.204 9.739-68.458 29.23-17.604 19.483-26.402 43.489-26.402 72.019s8.804 52.539 26.402 72.025c18.254 19.483 41.074 29.224 68.458 29.224zM520.319 486.288c6.096-0.139 12.33-0.933 18.707-2.381l0.011 0.006c28.060-6.363 48.534-22.391 61.414-48.082 13.515-25.827 16.278-58.823 8.279-98.984-15.724-78.954-55.877-141.697-120.464-188.222-11.595-8.035-23.779-10.622-36.534-7.728s-22.962 10.188-30.63 21.894c-7.802 11.022-10.558 22.313-8.252 33.888 2.167 10.883 8.281 19.812 18.327 26.783 27.335 20.121 48.062 43.88 62.181 71.265-23.826 7.539-41.766 21.208-53.819 41.020-11.919 20.488-15.293 43.667-10.153 69.534 5.557 27.905 18.846 49.428 39.856 64.584 15.762 11.366 32.785 16.843 51.074 16.426z" />
<glyph unicode="&#xe922;" d="M114.297 938.65c-63.312 0-114.279-50.967-114.279-114.279v-795.406c0-63.312 50.967-114.279 114.279-114.279h795.406c63.312 0 114.279 50.967 114.279 114.279v795.406c0 63.312-50.967 114.279-114.279 114.279zM285.774 779.297h205.451c91.26 0 129.923-4.945 185.669-34.616 60.241-32.818 97.546-97.099 97.546-177.569 0-74.176-30.113-138.465-88.555-177.126-53.497-35.515-114.19-40.456-195.56-40.456h-204.551zM516.833 688.050c-3.239 0.034-6.531 0.034-9.875-0.009l-117.329-0.9v-247.708h124.52c87.214 0 153.303 35.070 153.303 126.778 0 82.746-50.208 120.767-150.62 121.838zM285.774 259.615h103.855v-188.811h-103.855z" />
<glyph unicode="&#xe923;" d="M109.243 938.65c-60.51 0-109.226-48.715-109.226-109.226v-805.519c0-60.51 48.715-109.219 109.226-109.219h805.519c60.51 0 109.219 48.71 109.219 109.219v805.519c0 60.51-48.71 109.226-109.219 109.226h-805.519zM293.265 763.524h56.586v-76.743c21.219-2.829 40.315-8.606 57.291-17.329s31.359-20.16 43.147-34.306c12.025-13.91 21.216-30.411 27.582-49.508 6.602-18.861 9.904-40.081 9.904-63.657h-98.316c0 28.528-6.485 50.098-19.452 64.715-12.968 14.853-30.532 22.28-52.694 22.28-12.025 0-22.514-1.649-31.473-4.95-8.723-3.065-15.916-7.544-21.574-13.438-5.659-5.659-9.903-12.376-12.732-20.157-2.594-7.781-3.892-16.27-3.892-25.465s1.298-17.445 3.892-24.755c2.829-7.072 7.425-13.674 13.79-19.805 6.602-6.13 15.208-12.024 25.818-17.682 10.61-5.423 23.812-10.966 39.609-16.624 23.812-8.96 45.389-18.269 64.722-27.935 19.333-9.431 35.834-20.516 49.508-33.248 13.91-12.495 24.523-27.114 31.832-43.854 7.545-16.503 11.315-36.069 11.315-58.702 0-20.748-3.42-39.493-10.258-56.233-6.838-16.503-16.619-30.765-29.351-42.79s-28.057-21.695-45.975-29.004c-17.918-7.072-37.963-11.669-60.125-13.79v-69.313h-56.227v69.313c-20.040 1.886-39.493 6.248-58.355 13.086-18.861 7.072-35.602 17.213-50.219 30.415-14.382 13.204-25.931 29.826-34.654 49.866-8.724 20.276-13.086 44.559-13.086 72.851h98.67c0-16.976 2.474-31.242 7.425-42.795 4.951-11.316 11.318-20.392 19.099-27.229 8.016-6.602 17.092-11.315 27.229-14.144s20.511-4.244 31.121-4.244c25.227 0 44.324 5.893 57.291 17.682s19.452 26.991 19.452 45.617c0 9.902-1.532 18.626-4.596 26.172-2.829 7.781-7.542 14.855-14.144 21.222-6.366 6.366-14.855 12.143-25.465 17.329-10.374 5.423-22.986 10.726-37.839 15.914-23.812 8.487-45.506 17.445-65.074 26.876s-36.309 20.394-50.219 32.89c-13.674 12.495-24.281 26.997-31.826 43.5-7.545 16.739-11.315 36.543-11.315 59.413 0 20.040 3.415 38.313 10.253 54.816 6.838 16.739 16.508 31.24 29.004 43.5s27.582 22.16 45.265 29.704c17.682 7.545 37.37 12.379 59.061 14.502v76.038zM571.592 166.555h322.533v-76.743h-322.533v76.743z" />
<glyph unicode="&#xe924;" d="M559.632 911.205c-85.487 0-154.787-69.302-154.787-154.787 0 0 0 0 0-0.001v0c0.066-12.708 1.654-25.014 4.59-36.785l-0.225 1.065h118.751c24.030-0.091 43.487-19.547 43.579-43.577v-74.985c80.191 6.372 142.855 73.007 142.88 154.28v0.002c0 0 0 0 0 0 0 85.487-69.301 154.787-154.787 154.787 0 0 0 0 0 0v0zM893.019 799.413c-59.182 0-107.161-47.979-107.161-107.161 0 0 0-0.001 0-0.001v0c0.001-59.182 47.979-107.16 107.161-107.16v0c59.182 0 107.161 47.979 107.161 107.161v0c0 59.182-47.979 107.161-107.161 107.161v0zM410.311 715.786c0.329-1.442 0.426-1.807 0.524-2.172l-0.245 1.080c-0.098 0.362-0.185 0.729-0.28 1.092zM421.606 686.38c0.473-0.977 0.541-1.105 0.608-1.234l-0.406 0.842c-0.067 0.13-0.136 0.261-0.202 0.391zM43.666 680.344c-24.107 0-43.65-19.543-43.65-43.65v-436.595c0-24.107 19.543-43.65 43.65-43.65h436.596c24.107 0 43.65 19.543 43.65 43.65v436.596c0 24.107-19.543 43.65-43.65 43.65h-436.596zM527.84 604.981c-0.513 0.081 0.015-0.038 0.548-0.156l1.027-0.191c-0.527 0.11-1.051 0.229-1.575 0.347zM571.105 602.082c-0.659-0.038-1.31-0.078-1.961-0.115 1.073 0.055 1.752 0.095 2.43 0.14l-0.471-0.026zM147.087 560.277h229.752v-46.103h-87.276v-237.659h-55.604v237.659h-86.871v46.103zM570.067 537.464v-385.063c-0.119-17.659-10.82-33.521-27.148-40.244-5.198-2.199-10.785-3.333-16.432-3.334h-220.811c39.22-95.627 132.118-164.003 242.046-166.695 148.169 3.626 265.394 126.587 261.948 274.759v274.784c0.572 24.692-18.959 45.183-43.651 45.794h-195.955zM828.901 537.464c21.075-4.054 36.764-22.83 36.251-44.995v-274.784c1.102-47.318-10.106-92.063-30.696-131.173 7.348-0.99 14.843-1.505 22.461-1.504h0.786c91.839 0 166.289 74.449 166.289 166.289v240.921c0 24.989-20.257 45.245-45.245 45.245h-149.847z" />
<glyph unicode="&#xe925;" d="M172.336 722.578h660.13c1.012 0 1.832-0.82 1.832-1.832v-494.989c0-1.012-0.82-1.832-1.832-1.832h-660.13c-1.012 0-1.832 0.82-1.832 1.832v494.989c0 1.012 0.82 1.832 1.832 1.832z" />
<glyph unicode="&#xe926;" d="M462.769 857.183c-24.133-3.668-56.551-3.069-82.983-7.891-72.494-9.395-145.166-33.365-202.368-80.139-46.493 33.044-117.838 27.84-152.182-20.199-37.235-42.882-32.201-117.665 19.485-147.16 51.509-14.17 14.486-70.062 8.604-108.542s-8.323-70.664-8.072-92.532c4.55-248.751 4.697-411.74 192.046-434.279 145.452-17.499 455.574-18.472 562.923 40.094s98.091 227.045 116.844 283.162c33.871 129.671 28.631 156.259 33.098 281.745 38.845 11.309 70.213 47.078 72.091 86.904 0.513-1.58 1.265-0.528 0.23 6.897-0.091-0.29-0.114-0.57-0.181-0.859-0.214 7.509-1.474 15.127-3.969 22.715-16.6 63.445-92.463 104.948-153.586 75.698-28.6-25.21-49.557 20.671-76.883 27.847-89.603 47.27-192.68 63.019-292.892 66.342-10.726 0.793-21.941-1.859-32.202 0.181v0.012zM337.089 716.401v-0.024c73.887-0.967 146.881-65.123 137.986-142.439-6.842-79.375-97.943-125.607-170.407-104.96-58.317 11.18-110.12 64.589-102.94 126.502 0.302 64.62 56.737 120.986 121.466 120.657 2.238 0.071 4.53 0.086 6.741 0.134v0.012c2.382 0.112 4.768 0.14 7.152 0.121zM672.604 700.778c4.181 0.061 8.405-0.107 12.622-0.509 75.776 6.429 152.64-63.067 138.833-141.545-5.376-65.902-71.609-114.705-136.014-108.167-70.319-1.13-143.353 58.689-134.839 133.133-0.214 64.795 56.686 116.19 119.397 117.087zM-0.301 682.952c-2.064-4.33 1.503-11.102 0 0zM411.117 624.389c-0.888 0-1.788-0.002-2.712-0.048-48.408 1.385-55.259-78.882-8.713-88.321 51.133-9.221 67.296 87.844 11.425 88.368zM757.112 613.195c-0.708 0.016-1.415 0.011-2.105-0.012-42.799-1.318-52.696-71.437-12.211-86.481 51.525-20.861 78.818 63.734 30.775 83.551l-6.802 2.105-7.515 0.727c-0.725 0.052-1.433 0.093-2.143 0.11zM441.651 444.568c32.529-26.772 89.313-34.043 120.474-1.706 35.892-6.844 58.674-62.805 21.069-82.608-44.362-3.022-90.018 31.599-133.461 2.904-51.547-33.534-83.761 49.516-29.832 68.581 6.944 4.769 14.391 8.75 21.747 12.828zM496.073 367.695c0.438-27.178 8.789-56.601-3.691-82.233-43.253-35.877-52.824 31.675-43.446 61.624 2.845 16.025 33.592 17.614 47.137 20.609zM510.159 366.401h0.024c23.219-6.453 62.881-13.179 55.124-38.073 5.569-32.925-31.477-74.582-55.1-33.353-0.055 23.964-3.489 48.631-0.048 71.425z" />
<glyph unicode="&#xe927;" d="M93.66 736.247h840.265v-642.025h-840.265z" />
<glyph unicode="&#xe928;" d="M56.14 849.941c-32.75 0-55.369-23.798-55.369-48.913l0.903-788.123-1.674-9.512 161.445 48.794h807.186c32.75-0.54 55.369 23.798 55.369 48.913v699.928c0 25.090-22.59 48.913-55.29 48.913h-912.571zM137.374 699.668l311.731-169.681v-115.999l-311.731-169.681v125.405l192.863 101.944-1.222 0.465-191.64 101.413v126.135zM532.996 318.472h331.033v-115.029h-331.033v115.029z" />
<glyph unicode="&#xe929;" d="M470.404-83.897c-95.374 7.955-185.968 42.101-263.38 99.275-32.778 24.208-81.962 73.392-106.171 106.171-123.159 166.758-134.32 390.631-28.314 567.912 28.241 47.229 73.078 99.186 115.333 133.646 103.743 84.607 238.928 125.748 372.064 113.233 132.607-12.466 258.256-77.955 342.642-178.588 132.079-157.511 158.909-375.021 68.686-556.829-69.187-139.42-191.912-237.308-342.247-272.981-45.314-10.753-111.971-15.728-158.614-11.838zM415.352-18.065c4.618 4.618 4.702 7.836 4.702 179.849 0 205.441 3.396 184.551-30.002 184.551h-20.599l-73.56 74.056 0.288 13.223c0.386 17.715-7.625 30.377-22.912 36.216-17.581 6.714-32.82 1.972-44.672-13.904-6.797-9.104-6.797-31.403 0-40.507 9.45-12.658 16.624-16.186 32.9-16.186h15.057l23.555-23.465c12.956-12.906 23.555-24.808 23.555-26.449 0-2.273-8.172-2.983-34.38-2.983h-34.38l-44.964 43.916c-24.73 24.153-46.223 45.427-47.762 47.276-1.764 2.12-2.309 7.487-1.474 14.534 2.517 21.256-7.77 37.082-27.574 42.413-26.086 7.024-51.475-18.659-44.461-44.978 4.716-17.702 18.832-27.842 39.047-28.046l11.399-0.116 103.443-100.754 70.924-0.053c39.008-0.027 72.597-0.695 74.643-1.479 3.295-1.263 3.719-10.93 3.719-84.635 0-45.764-0.81-83.207-1.8-83.207s-14.196 12.431-29.348 27.624l-27.548 27.624 1.421 11.976c3.649 30.766-26.1 52.081-53.219 38.133-11.379-5.851-21.159-20.864-21.159-32.477 0-3.331 2.381-10.778 5.29-16.546 6.609-13.104 21.358-21.451 36.556-20.686l10.109 0.508 79.699-79.596v-60.564c0-57.429 0.243-60.807 4.702-65.264 2.586-2.586 6.818-4.702 9.404-4.702s6.818 2.116 9.404 4.702zM292.094 218.374c-2.031 2.031-3.694 4.601-3.694 5.71 0 2.146 6.599 9.404 8.551 9.404 3.978 0 10.257-5.52 10.257-9.016 0-8.949-8.737-12.474-15.113-6.097zM253.605 429.086c-5.414 5.414-1.639 15.986 5.71 15.986 3.3 0 10.277-6.385 10.277-9.404s-6.977-9.404-10.277-9.404c-1.589 0-4.158 1.27-5.71 2.821zM116.809 454.423c-1.979 3.697-1.503 5.632 2.322 9.458s5.761 4.301 9.458 2.322c5.213-2.791 6.092-9.341 1.827-13.607s-10.816-3.386-13.607 1.827zM610.481-6.311c4.544 4.544 4.702 7.836 4.702 98.071v93.369l74.126 74.126 14.598-0.204c25.248-0.356 40.58 13.524 40.58 36.738 0 22.782-16.038 37.509-39.006 35.819-21.667-1.594-33.874-15.815-33.874-39.464v-12.339l-25.137-25.509c-13.826-14.029-26.521-25.509-28.211-25.509-2.403 0-3.074 8.138-3.074 37.228v37.228l79.563 78.357h168.759l6.905-7.262c10.583-11.131 18.92-14.582 32.154-13.31 25.89 2.487 40.488 25.9 31.242 50.109-8.116 21.251-34.165 29.828-53.776 17.708-4.788-2.96-10.295-8.453-12.236-12.207l-3.53-6.827h-46.959c-25.827 0-46.959 0.767-46.959 1.705s7.113 8.872 15.806 17.632c15.614 15.734 15.959 15.928 28.445 15.928 23.385 0 37.837 11.924 39.85 32.884 3.828 39.829-48.315 56.023-68.593 21.301-3.399-5.82-4.628-11.818-4.365-21.31l0.366-13.209-55.001-54.564-42.727-1.539-46.491-44.668c-25.57-24.567-47.429-47.117-48.578-50.112-3.272-8.529-2.684-309.936 0.616-316.206 5.216-9.91 13.315-11.452 20.807-3.96zM700.606 291.247c-2.196 5.721 2.298 11.592 8.872 11.592 4.679 0 5.622-1.183 5.622-7.053 0-5.95-1.013-7.169-6.478-7.798-4.411-0.507-6.969 0.532-8.015 3.258zM892.69 392.064c-5.602 6.75 2.126 17.101 10.397 13.928 8.554-3.282 5.768-17.341-3.437-17.341-2.269 0-5.401 1.536-6.959 3.413zM810.595 477.46c-3.109 5.811 1.006 12.282 7.811 12.282 6.087 0 9.221-5.348 7.082-12.086-1.79-5.642-11.908-5.774-14.894-0.196zM510.432 69.443c3.218 4.594 3.66 23.023 3.66 152.639v147.414l68.175 1.523 255.099 255.079h10.215c20.941 0 35.498 12.789 37.428 32.884 2.168 22.558-13.48 40.005-35.863 39.988-25.032-0.018-42.574-22.036-36.254-45.503l2.512-9.331-246.048-246.080h-54.871l-1.57 56.365-58.611 58.739 16.041 16.549h54.633c32.739 0 57.256 0.996 61.177 2.488 3.599 1.369 32.858 29.404 65.017 62.301l58.473 59.813h10.99c14.966 0 26.028 6.427 32.79 19.056 6.541 12.216 6.033 27.202-1.259 37.048-16.757 22.628-45.768 22.433-62.701-0.423-5.105-6.889-6.692-23.849-3.138-33.53 1.522-4.144-6.623-13.504-53.699-61.712l-55.493-56.829h-37.4c-20.57 0-37.4 0.824-37.4 1.832s6.612 8.353 14.694 16.326c14.629 14.431 14.75 14.493 27.773 14.152 22.901-0.597 37.529 12.103 39.173 34.009 1.801 23.983-14.742 40.504-38.832 38.785-21.881-1.562-34.603-16.195-34.013-39.126l0.336-13.079-77.371-77.488-45.76 45.76 139.482 139.482 13.708-0.459c17.143-0.573 28.154 4.883 35.416 17.55 14.482 25.261-2.447 55.003-31.309 55.003-13.295 0-23.901-5.613-32.475-17.184-3.721-5.023-4.849-9.902-4.706-20.374l0.187-13.769-69.834-69.805c-60.705-60.678-70.413-69.487-74.268-67.385-2.438 1.331-18.579 16.737-35.865 34.235-29.533 29.893-31.312 32.213-29.44 38.389 3.696 12.197 2.414 28.135-2.833 35.218-16.934 22.855-45.944 23.050-62.701 0.423-16.265-21.963 1.934-56.104 29.908-56.104 9.186 0 11.069-1.698 96.891-87.408 48.138-48.074 86.988-88.276 86.331-89.337s-19.926-1.928-42.821-1.928h-41.63l-88.52 85.81 2.924 10.67c5.501 20.070-1.856 36.61-19.934 44.82-12.408 5.636-18.776 5.552-31.091-0.411-18.203-8.812-25.858-29.201-17.801-47.416 6.005-13.573 16.611-21.032 31.964-22.474l12.042-1.132 96.843-95.729h63.313c53.498 0 64.124-0.568 68.539-3.66l5.224-3.66v-183.893c0-202.601-0.599-194.344 14.106-194.344 4.348 0 8.101 1.878 10.446 5.224zM235.67 578.070c-2.031 2.031-3.694 4.601-3.694 5.71 0 2.146 6.599 9.404 8.551 9.404 3.978 0 10.257-5.52 10.257-9.016 0-8.949-8.737-12.474-15.113-6.097zM542.303 621.395c-3.826 3.826-4.301 5.761-2.322 9.458 2.791 5.213 9.341 6.092 13.607 1.827s3.386-10.816-1.827-13.607c-3.697-1.979-5.632-1.503-9.458 2.322zM841.157 658.484c-3.13 5.847 1.021 12.282 7.924 12.282 6.944 0 9.13-3.23 7.251-10.713-1.747-6.961-11.737-7.994-15.176-1.569zM257.673 686.244c-4.124 4.969-0.010 11.557 7.216 11.557s11.34-6.589 7.216-11.557c-1.699-2.048-4.947-3.723-7.216-3.723s-5.517 1.675-7.216 3.723zM713.761 686.244c-4.124 4.969-0.009 11.557 7.216 11.557s11.34-6.589 7.216-11.557c-1.699-2.048-4.947-3.723-7.216-3.723s-5.517 1.675-7.216 3.723zM537.884 750.172c-3.127 5.842 1.019 12.282 7.906 12.282 3.581 0 6.154-1.737 7.13-4.815 3.060-9.637-10.318-16.281-15.035-7.467z" />
<glyph unicode="&#xe92a;" d="M496.434 938.419c-143.713-4.507-271.863-67.569-362.037-165.995l-0.348-0.382c-83.106-90.709-134.030-212.091-134.030-345.368 0-149.482 64.063-284.004 166.232-377.604l0.382-0.346c90.709-83.106 212.091-134.032 345.369-134.032 149.482 0 284.004 64.063 377.603 166.231l0.346 0.382c83.106 90.709 134.032 212.093 134.032 345.368 0 149.482-64.063 284.004-166.232 377.606l-0.382 0.346c-90.709 83.109-212.094 134.034-345.371 134.034-5.474 0-10.926-0.086-16.357-0.256l0.794 0.019zM616.679 740.66c32.677 0 60.142-4.644 82.391-13.935 22.26-9.3 39.585-21.559 51.979-36.772s20.141-32.958 23.234-53.24c3.104-20.283 2.12-41.41-2.952-63.383-6.197-26.479-17.89-53.104-35.078-79.872-17.179-26.755-38.723-50.984-64.639-72.68-25.917-21.684-55.641-39.287-89.169-52.809-33.516-13.522-69.149-20.282-106.898-20.282h-4.225l-107.327-240.853h-121.694l239.166 537.479 128.453 16.904-125.074-282.262c21.972 1.691 43.521 9.154 64.643 22.387 21.132 13.246 40.577 29.867 58.33 49.86 17.743 20.006 33.090 42.259 46.047 66.761 12.958 24.513 22.254 48.603 27.888 72.265 3.379 14.649 4.932 28.734 4.655 42.253-0.288 13.522-3.809 25.354-10.571 35.495s-17.046 18.313-30.856 24.51c-13.797 6.197-32.528 9.293-56.191 9.293-27.608 0-54.792-4.506-81.56-13.522-26.755-9.014-51.548-22.113-74.37-39.304-22.812-17.179-42.667-38.587-59.569-64.23-16.901-25.629-29.015-54.783-36.34-87.461-2.818-10.704-4.506-19.293-5.070-25.766-0.564-6.485-0.703-11.838-0.415-16.058 0.276-4.231 0.834-7.471 1.674-9.725 0.851-2.254 1.554-4.507 2.118-6.761-28.734 0-49.722 5.775-62.968 17.331-13.234 11.544-16.469 31.684-9.708 60.418 6.761 29.859 22.113 58.309 46.065 85.352 23.938 27.043 52.384 50.849 85.337 71.42 32.963 20.558 69.023 36.892 108.174 48.998 39.163 12.119 77.331 18.18 114.517 18.18z" />
<glyph unicode="&#xe92b;" d="M512.021 938.629c-0.002 0-0.005 0-0.008 0-282.758 0-511.972-229.221-511.972-511.972 0-0.003 0-0.006 0-0.008v0c0.020-282.739 229.231-511.942 511.972-511.942 0.003 0 0.006 0 0.008 0v0c0.002 0 0.005 0 0.008 0 282.743 0 511.953 229.197 511.972 511.939v0.002c0 0.002 0 0.005 0 0.008 0 282.758-229.22 511.972-511.972 511.972-0.003 0-0.006 0-0.008 0v0zM515.875 776.231c172.971 0 324.541-149.854 344.233-323.254 1.283-11.132 1.712-21.836 1.712-31.683 0-89.056-50.522-177.256-145.144-177.256-41.96 0-75.783 17.554-99.76 48.381-29.115-25.69-68.503-45.385-115.601-45.385-103.613 0-182.394 82.634-182.394 186.244 0 92.909 81.774 178.968 173.831 178.968 38.106 0 72.358-9.848 101.045-28.258 5.993 17.126 21.836 29.116 40.247 29.116 23.549 0 42.816-19.267 42.816-42.816v-209.794c0-14.986 18.839-29.543 39.819-29.543 39.819 0 58.657 44.957 58.657 89.91 0 146.426-126.734 266.31-259.459 266.31-155.421 0-268.453-124.59-268.453-258.601 0-142.147 105.326-264.168 255.178-264.168 30.399 0 61.226 5.994 93.766 17.126 10.276 3.425 19.267 5.993 27.83 5.993 22.69 0 34.253-17.126 34.253-39.819 0-22.264-11.987-39.391-32.54-47.096-41.529-15.842-82.634-23.549-123.309-23.549-197.806 0-340.381 164.835-340.381 350.227 0 174.259 145.996 348.944 353.65 348.944zM497.892 525.764c-50.95 0-93.338-44.098-93.338-95.907 0-51.378 37.678-96.763 93.338-96.763 53.947 0 93.766 41.96 94.621 95.477-0.427 53.947-41.96 97.19-94.621 97.19z" />
<glyph unicode="&#xe92c;" d="M135.469 880.573c-74.953 0-136.286-61.339-136.286-136.292v-406.021c0-74.953 61.332-136.286 136.286-136.286h57.154v-219.454l199.219 219.454 499.101 0.27c69.349 8.985 132.226 60.888 132.226 136.016v406.021c0 74.954-61.333 136.286-136.286 136.286l-751.414 0.006zM258.83 680.348c17.144-0.378 32.399-4.16 45.76-11.344 13.362-7.059 23.568-16.955 30.627-29.686 7.059-12.605 10.337-27.041 9.834-43.303l-46.509 0.192c0.882 14.369-2.336 25.528-9.647 33.469-7.185 7.941-18.085 12.099-32.707 12.478-14.748 0.252-27.228-3.217-37.438-10.403-10.084-7.185-16.008-16.888-17.771-29.115-2.521-16.008 8.194-28.615 32.144-37.816l14.18-5.103c28.866-10.336 49.033-22.505 60.505-36.496 11.47-13.866 16.514-30.311 15.127-49.346-1.26-15.504-6.369-29.056-15.319-40.653-8.949-11.47-21.364-20.361-37.246-26.664-15.756-6.302-33.153-9.324-52.188-9.072-18.025 0.126-34.412 3.907-49.16 11.344-14.622 7.437-25.84 17.709-33.654 30.818-7.815 13.235-11.405 28.235-10.775 44.999l46.701-0.186c-1.009-15.63 2.833-27.668 11.53-36.113s21.177-12.795 37.438-13.047c15.126-0.252 27.732 2.96 37.816 9.641 10.21 6.68 16.324 16.199 18.341 28.553 2.773 18.153-7.122 31.636-29.686 40.46l-15.314 5.673c-28.489 9.958-48.721 21.743-60.695 35.357s-17.396 29.437-16.261 47.463c1.009 15.63 6.304 29.366 15.883 41.216 9.706 11.975 22.437 21.176 38.193 27.606s32.52 9.456 50.294 9.078zM817.744 680.348c17.144-0.378 32.399-4.16 45.76-11.344 13.362-7.059 23.568-16.955 30.627-29.686 7.059-12.605 10.337-27.041 9.834-43.303l-46.509 0.192c0.882 14.369-2.336 25.528-9.647 33.469-7.185 7.941-18.085 12.099-32.707 12.478-14.748 0.252-27.228-3.217-37.438-10.403-10.084-7.185-16.008-16.888-17.771-29.115-2.521-16.008 8.188-28.615 32.138-37.816l14.186-5.103c28.866-10.336 49.033-22.505 60.505-36.496 11.47-13.866 16.514-30.311 15.127-49.346-1.26-15.504-6.369-29.056-15.319-40.653-8.949-11.47-21.364-20.361-37.246-26.664-15.756-6.302-33.153-9.324-52.188-9.072-18.025 0.126-34.412 3.907-49.16 11.344-14.622 7.437-25.84 17.709-33.654 30.818-7.815 13.235-11.405 28.235-10.775 44.999l46.701-0.186c-1.009-15.63 2.833-27.668 11.53-36.113s21.177-12.795 37.438-13.047c15.126-0.252 27.732 2.96 37.816 9.641 10.21 6.68 16.324 16.199 18.341 28.553 2.773 18.153-7.122 31.636-29.686 40.46l-15.314 5.673c-28.489 9.958-48.721 21.743-60.695 35.357s-17.396 29.437-16.261 47.463c1.009 15.63 6.304 29.366 15.883 41.216 9.706 11.975 22.437 21.176 38.193 27.606s32.519 9.456 50.294 9.078zM400.452 676.565h59.371l40.274-210.634 113.255 210.634h61.26l-47.644-275.3h-46.515l16.075 93.217 24.385 114.772-113.442-207.991h-33.66l-42.163 214.226-17.208-125.924-15.314-88.301h-46.509l47.835 275.3z" />
<glyph unicode="&#xe92d;" d="M512 938.644c-282.755 0-511.977-229.222-511.977-511.977s229.222-511.977 511.977-511.977c282.755 0 511.977 229.222 511.977 511.977s-229.222 511.977-511.977 511.977zM308.009 681.588h13.335c66.929 0 66.929 0 66.929-66.929v-367.452c0-66.929 0-66.929-66.929-66.929h-13.335c-66.929 0-66.929 0-66.929 66.929v367.452c0 66.929 0 66.929 66.929 66.929zM484.165 681.588h150.141c128.706 0 210.503-129.086 210.503-252.089s-82.508-249.22-210.503-249.22h-150.141c-22.795 0-34.030 11.236-34.030 34.030v433.252c0 22.791 11.236 34.026 34.030 34.026z" />
<glyph unicode="&#xe92e;" d="M862.79 938.644c59.987 0 108.369-48.51 111.227-105.595v-918.36l-114.214 96.976-62.718 57.085-68.434 59.646 28.586-94.076h-598.928c-59.817 0-108.369 45.438-108.369 105.638v692.877c0 57.085 48.637 105.681 108.583 105.681l704.268 0.128zM601.767 696.18h-1.28l-8.619-8.532c88.444-25.598 131.238-65.577 131.238-65.577-57.001 28.499-108.369 42.75-159.737 48.51-37.118 5.76-74.237 2.731-105.595 0h-8.532c-20.052 0-62.718-8.532-119.888-31.358-19.924-8.66-31.358-14.336-31.358-14.336s42.75 42.75 136.954 65.577l-5.76 5.76s-71.336 2.731-148.346-54.184c0 0-77.009-134.138-77.009-299.506 0 0 42.665-74.237 159.694-77.052 0 0 17.066 22.739 34.346 42.75-65.704 19.967-91.303 59.901-91.303 59.901s5.717-2.816 14.292-8.532h2.56c1.28 0 1.877-0.64 2.56-1.28v-0.256c0.683-0.683 1.28-1.28 2.56-1.28 14.079-5.803 28.159-11.519 39.679-17.066 19.883-8.619 45.438-17.195 76.797-22.868 39.679-5.76 85.16-8.532 136.954 0 25.598 5.76 51.198 11.391 76.797 22.826 16.64 8.532 37.118 17.066 59.603 31.444 0 0-25.598-39.934-94.076-59.901 14.079-19.883 33.919-42.665 33.919-42.665 117.072 2.56 162.553 76.797 165.113 73.64 0 165.113-77.436 299.506-77.436 299.506-69.756 51.795-135.035 53.758-146.554 53.758l2.388 0.852zM608.935 507.9c29.993 0 54.184-25.598 54.184-56.958 0-31.572-24.319-57.171-54.184-57.171s-54.184 25.598-54.184 56.915c0.085 31.572 24.447 57.085 54.184 57.085zM415.108 507.9c29.866 0 54.013-25.598 54.013-56.958 0-31.572-24.319-57.171-54.184-57.171s-54.184 25.598-54.184 56.915c0 31.572 24.319 57.085 54.184 57.085z" />
<glyph unicode="&#xe92f;" d="M803.138 338.993l-66.343-22.228 23.038-68.689c9.3-27.732-5.76-57.809-33.534-67.153-6.399-1.92-12.159-2.859-18.559-2.688-21.802 0.64-41.64 14.42-49.277 36.222l-23.038 68.56-136.951-45.778 22.996-68.604c9.003-27.817-5.76-57.937-33.875-67.195-6.399-2.048-12.159-2.859-18.559-2.731-21.758 0.64-41.64 14.506-49.32 36.265l-22.996 69.073-66.599-22.356c-6.399-1.92-12.159-2.603-18.559-2.603-21.802 0.683-41.64 14.719-49.277 36.478-9.599 28.158 5.76 58.193 33.277 67.195l66.556 22.399-42.109 131.747-66.172-22.399c-6.015-2.048-12.159-2.816-18.26-2.731-21.119 0.683-41.598 14.42-48.68 36.179-8.916 27.732 5.76 57.767 33.961 67.153l66.556 22.186-23.038 68.476c-8.96 27.902 5.802 57.98 33.961 67.195 28.116 9.386 58.151-5.802 67.153-33.406l22.996-68.604 136.311 45.821-23.038 68.476c-8.916 27.518 5.76 57.596 33.661 67.153 27.817 9.003 57.98-5.76 67.195-33.747l23.038-69.158 66.343 21.758c27.774 9.344 57.852-5.76 67.195-33.235 9.3-27.902-5.76-57.98-33.449-67.195l-66.427-22.356 44.157-131.66 66.172 22.015c27.817 9.003 57.937-5.76 67.195-33.918 9.386-28.158-5.76-58.236-33.235-67.153zM981.090 567.501c-105.593 351.678-258.074 433.892-609.924 328.256-351.678-105.55-433.892-257.946-328.256-609.924 105.593-351.764 257.946-433.892 609.924-328.256 351.764 105.593 433.892 257.946 328.256 609.924zM421.509 469.544l44.157-131.619 136.739 45.821-44.157 131.148-136.739-46.077z" />
<glyph unicode="&#xe930;" glyph-name="rocketchat" d="M977.337 581.009c-27.769 43.122-66.691 81.296-115.619 113.495-94.535 62.112-218.746 96.33-349.757 96.33-43.773 0-86.895-3.808-128.759-11.342-25.971 25.006-56.337 47.497-88.498 65.27-119.321 59.489-224.475 37.339-277.604 18.233-17.455-6.281-22.841-28.356-9.93-41.677 37.469-38.669 99.461-115.092 84.222-184.59-59.242-60.477-91.364-133.401-91.364-209.33 0-77.375 32.123-150.299 91.364-210.775 15.24-69.498-46.752-145.959-84.222-184.627-12.873-13.283-7.525-35.358 9.93-41.639 53.131-19.106 158.282-41.295 277.642 18.192 32.162 17.774 62.527 40.269 88.498 65.274 41.863-7.537 84.987-11.342 128.759-11.342 131.048 0 255.262 34.178 349.757 96.292 48.929 32.199 87.85 70.336 115.619 113.495 30.94 48.029 46.598 99.753 46.598 153.647-0.038 55.34-15.7 107.022-46.637 155.092zM506.616 152.113c-56.646 0-110.653 7.308-159.887 20.514l-35.981-34.596c-19.556-18.8-42.474-35.815-66.384-49.21-31.663-15.49-62.947-23.979-93.883-26.527 1.757 3.156 3.36 6.352 5.079 9.553 36.056 66.222 45.796 125.747 29.183 178.535-58.976 46.318-94.343 105.618-94.343 170.205 0 148.242 186.355 268.437 416.217 268.437 229.859 0 416.254-120.195 416.254-268.437 0-148.28-186.355-268.474-416.254-268.474zM307.502 537.59c-33.88 0-61.344-27.25-61.344-60.857s27.463-60.857 61.344-60.857c33.878 0 61.341 27.25 61.341 60.857s-27.463 60.857-61.341 60.857zM504.934 537.59c-33.878 0-61.341-27.25-61.341-60.857s27.463-60.857 61.341-60.857c33.88 0 61.344 27.25 61.344 60.857s-27.463 60.857-61.344 60.857zM702.405 537.59c-33.88 0-61.344-27.25-61.344-60.857s27.463-60.857 61.344-60.857c33.878 0 61.341 27.25 61.341 60.857s-27.463 60.857-61.341 60.857z" />
<glyph unicode="&#xe931;" d="M895.983 938.644h-767.965c-70.696 0-127.995-57.298-127.995-127.995v-767.965c0-70.653 57.298-127.995 127.995-127.995h767.965c70.653 0 127.995 57.342 127.995 127.995v767.965c0 70.696-57.342 127.995-127.995 127.995zM445.443 162.999c0-33.919-27.518-61.437-61.437-61.437h-189.432c-33.919 0-61.437 27.562-61.437 61.437v581.094c0 33.919 27.518 61.437 61.437 61.437h189.432c33.919 0 61.437-27.518 61.437-61.437v-581.094zM890.862 418.987c0-33.875-27.518-61.437-61.437-61.437h-189.432c-33.919 0-61.437 27.562-61.437 61.437v325.105c0 33.919 27.562 61.437 61.437 61.437h189.432c33.919 0 61.437-27.518 61.437-61.437v-325.105z" />
<glyph unicode="&#xe932;" glyph-name="group" d="M52.368 767.92c-28.879 0-52.286-23.412-52.289-52.289v-442.954l127.377 312.883c8.208 20.167 25.191 32.945 43.791 32.945h652.214v21.921c0 28.879-23.411 52.286-52.289 52.289h-372.698l-50.574 57.467c-9.93 11.279-24.232 17.742-39.261 17.739zM823.461 368.279l-116.633-277.3c-8.32-19.786-25.134-32.25-43.504-32.251h-627.804c5.293-1.804 10.945-2.828 16.847-2.828h718.804c28.879 0 52.286 23.411 52.289 52.289zM245.137 552.409c-19.933 0-38.132-11.331-46.928-29.219l-192.768-391.919c-17.087-34.75 8.205-75.371 46.928-75.371h720.1c19.686 0 37.705 11.056 46.621 28.607l199.161 391.919c17.675 34.786-7.594 75.975-46.612 75.984z" />
</font>
</defs>
</svg>
